Скачать Вне правил (2016) BDRip 720p | iTunes торрент

Вне правил (2016) BDRip 720p | iTunes
0
0
KP 5.5
IMDB 5.7
Меню раздачи
Участники
Добавил торрент файл
Добавил раздачу
Релиз-группа
  • Релиз группа
0
00
Наименование: Вне правил
Оригинальное наименование: Rules Don't Apply
Произведено: США
Категория: драма, мелодрама, комедия
Режиссер постановщик: Уоррен Битти
В главных ролях: Уоррен Битти, Лили Коллинз, Олден Эренрайк, Аннетт Бенинг, Мэттью Бродерик, Алек Болдуин, Хейли Беннетт, Кэндис Берген, Дэбни Коулмен, Стив Куган
Краткое содержание: Фильм рассказывает о молодой женщине, влюбляющейся в эксцентричного миллионера Говарда Хьюза в самый разгар своих отношений с его водителем.
  • Видео: MPEG-4 AVC, MPEG-4 AVC, 5700 Kбит/с, 1280x694
    Аудио: Русский (AC3, 6 ch, 384 Кбит/с), украинский (AC3, 2 ch, 192 Кбит/с), английский (AC3, 6 ch, 640 Кбит/с)
    Продолжительность: 02:06:22
    Перевод: Профессиональный многоголосый [iTunes]
    Субтитры: Русские, английские
  • Вне правил (2016) BDRip 720p | iTunes Вне правил (2016) BDRip 720p | iTunes Вне правил (2016) BDRip 720p | iTunes
  • Общее
    Уникальный идентификатор : 189438263656918661710719783810403121348 (0x8E847B826E27F0698297AB7F869FB8C4)
    Полное имя : D:\загрузки\Rules.Don't.Apply.2016.PBDRip.720p.mkv
    Формат : Matroska
    Версия формата : Version 2
    Размер файла : 6,11 Гбайт
    Продолжительность : 2 ч. 7 м.
    Общий поток : 6885 Кбит/сек
    Дата кодирования : UTC 2017-04-22 16:28:18
    Программа кодирования : mkvmerge v7.8.0 ('River Man') 32bit built on Apr 3 2015 12:11:22
    Библиотека кодирования : libebml v1.3.1 + libmatroska v1.4.2

    Видео
    Идентификатор : 1
    Формат : AVC
    Формат/Информация : Advanced Video Codec
    Профиль формата : [email protected]
    Параметр CABAC формата : Да
    Параметр ReFrames формата : 9 кадров
    Идентификатор кодека : V_MPEG4/ISO/AVC
    Продолжительность : 2 ч. 7 м.
    Битрейт : 5700 Кбит/сек
    Ширина : 1280 пикселей
    Высота : 694 пикселя
    Соотношение сторон : 1,85:1
    Режим частоты кадров : Постоянный
    Частота кадров : 23,976 (24000/1001) кадра/сек
    Цветовое пространство : YUV
    Субдискретизация насыщенности : 4:2:0
    Битовая глубина : 8 бит
    Тип развёртки : Прогрессивная
    Бит/(Пиксели*Кадры) : 0.268
    Размер потока : 4,91 Гбайт (80%)
    Библиотека кодирования : x264 core 148 r2744kMod b97ae06
    Настройки программы : cabac=1 / ref=9 / deblock=1:-3:-3 / analyse=0x3:0x133 / me=umh / subme=10 / psy=1 / fade_compensate=0.00 / psy_rd=1.00:0.00 / mixed_ref=1 / me_range=24 / chroma_me=1 / trellis=2 / 8x8dct=1 / cqm=0 / deadzone=21,11 / fast_pskip=0 / chroma_qp_offset=-2 / threads=22 / lookahead_threads=3 / sliced_threads=0 / nr=0 / decimate=0 / interlaced=0 / bluray_compat=0 / constrained_intra=0 / bframes=8 / b_pyramid=2 / b_adapt=2 / b_bias=0 / direct=3 / weightb=1 / open_gop=0 / weightp=2 / keyint=250 / keyint_min=23 / scenecut=40 / intra_refresh=0 / rc_lookahead=60 / rc=2pass / mbtree=0 / bitrate=5700 / ratetol=1.0 / qcomp=0.65 / qpmin=0 / qpmax=69 / qpstep=4 / cplxblur=20.0 / qblur=0.5 / vbv_maxrate=62500 / vbv_bufsize=78125 / nal_hrd=none / filler=0 / ip_ratio=1.30 / pb_ratio=1.20 / aq=3:0.80
    Язык : English
    Default : Да
    Forced : Нет
    Цветовой диапазон : Limited
    Коэффициенты матрицы : BT.709

    Аудио #1
    Идентификатор : 2
    Формат : AC-3
    Формат/Информация : Audio Coding 3
    Расширение режима : CM (complete main)
    Параметр Endianness формата : Big
    Идентификатор кодека : A_AC3
    Продолжительность : 2 ч. 7 м.
    Вид битрейта : Постоянный
    Битрейт : 384 Кбит/сек
    Каналы : 6 каналов
    Расположение каналов : Front: L C R, Side: L R, LFE
    Частота : 48,0 КГц
    Частота кадров : 31,250 кадров/сек (1536 spf)
    Битовая глубина : 16 бит
    Метод сжатия : С потерями
    Размер потока : 349 Мбайт (6%)
    Заголовок : iTunes
    Язык : Russian
    Default : Да
    Forced : Нет

    Аудио #2
    Идентификатор : 3
    Формат : AC-3
    Формат/Информация : Audio Coding 3
    Расширение режима : CM (complete main)
    Параметр Endianness формата : Big
    Идентификатор кодека : A_AC3
    Продолжительность : 2 ч. 7 м.
    Вид битрейта : Постоянный
    Битрейт : 192 Кбит/сек
    Каналы : 2 канала
    Расположение каналов : Front: L R
    Частота : 48,0 КГц
    Частота кадров : 31,250 кадров/сек (1536 spf)
    Битовая глубина : 16 бит
    Метод сжатия : С потерями
    Размер потока : 174 Мбайт (3%)
    Язык : Ukrainian
    Default : Нет
    Forced : Нет

    Аудио #3
    Идентификатор : 4
    Формат : AC-3
    Формат/Информация : Audio Coding 3
    Расширение режима : CM (complete main)
    Параметр Endianness формата : Big
    Идентификатор кодека : A_AC3
    Продолжительность : 2 ч. 7 м.
    Вид битрейта : Постоянный
    Битрейт : 640 Кбит/сек
    Каналы : 6 каналов
    Расположение каналов : Front: L C R, Side: L R, LFE
    Частота : 48,0 КГц
    Частота кадров : 31,250 кадров/сек (1536 spf)
    Битовая глубина : 16 бит
    Метод сжатия : С потерями
    Размер потока : 582 Мбайт (9%)
    Заголовок : Original
    Язык : English
    Default : Нет
    Forced : Нет

    Текст #1
    Идентификатор : 5
    Формат : UTF-8
    Идентификатор кодека : S_TEXT/UTF8
    Идентификатор кодека/Информация : UTF-8 Plain Text
    Заголовок : Forced
    Язык : Russian
    Default : Да
    Forced : Нет

    Текст #2
    Идентификатор : 6
    Формат : UTF-8
    Идентификатор кодека : S_TEXT/UTF8
    Идентификатор кодека/Информация : UTF-8 Plain Text
    Заголовок : FULL
    Язык : Russian
    Default : Нет
    Forced : Нет

    Текст #3
    Идентификатор : 7
    Формат : UTF-8
    Идентификатор кодека : S_TEXT/UTF8
    Идентификатор кодека/Информация : UTF-8 Plain Text
    Заголовок : FULL
    Язык : English
    Default : Нет
    Forced : Нет

    Текст #4
    Идентификатор : 8
    Формат : UTF-8
    Идентификатор кодека : S_TEXT/UTF8
    Идентификатор кодека/Информация : UTF-8 Plain Text
    Заголовок : SDH
    Язык : English
    Default : Нет
    Forced : Нет

    Текст #5
    Идентификатор : 9
    Формат : UTF-8
    Идентификатор кодека : S_TEXT/UTF8
    Идентификатор кодека/Информация : UTF-8 Plain Text
    Заголовок : SDH - Colored
    Язык : English
    Default : Нет
    Forced : Нет

    Меню
    00:00:00.000 : en:00:00:00.000
    00:03:47.519 : en:00:03:47.519
    00:06:54.456 : en:00:06:54.456
    00:11:44.412 : en:00:11:44.412
    00:15:57.373 : en:00:15:57.373
    00:21:31.165 : en:00:21:31.165
    00:28:39.760 : en:00:28:39.760
    00:31:49.533 : en:00:31:49.533
    00:38:12.165 : en:00:38:12.165
    00:41:54.011 : en:00:41:54.011
    00:46:55.771 : en:00:46:55.771
    00:52:16.633 : en:00:52:16.633
    00:56:21.503 : en:00:56:21.503
    01:03:14.833 : en:01:03:14.833
    01:07:13.947 : en:01:07:13.947
    01:12:35.893 : en:01:12:35.893
    01:16:39.887 : en:01:16:39.887
    01:20:47.843 : en:01:20:47.843
    01:25:17.321 : en:01:25:17.321
    01:29:58.685 : en:01:29:58.685
    01:35:58.586 : en:01:35:58.586
    01:44:52.536 : en:01:44:52.536
    01:53:26.216 : en:01:53:26.216
    02:01:34.412 : en:02:01:34.412
Добавить комментарий
  • bowtiesmilelaughingblushsmileyrelaxedsmirk
    heart_eyeskissing_heartkissing_closed_eyesflushedrelievedsatisfiedgrin
    winkstuck_out_tongue_winking_eyestuck_out_tongue_closed_eyesgrinningkissingstuck_out_tonguesleeping
    worriedfrowninganguishedopen_mouthgrimacingconfusedhushed
    expressionlessunamusedsweat_smilesweatdisappointed_relievedwearypensive
    disappointedconfoundedfearfulcold_sweatperseverecrysob
    joyastonishedscreamtired_faceangryragetriumph
    sleepyyummasksunglassesdizzy_faceimpsmiling_imp
    neutral_faceno_mouthinnocent